* Dettagli Torrent   globale  | Commenti (0) 


- Overboard (2018).720p.H264.italian.english.Ac3-5.1.sub.ita-MIRCrew -


Download via torrent:
Categoria bittorrent BDRip
Descrizione
Visitate mircrew-releases

Overboard 2018.720p.H264.italian.english.Ac3-5.1.sub.ita-MIRCrew


NO FOUND ONLY ORIGINAL RELEASE



My release is always in double track audio italian and Original audio
for select it use VLC or dvd player home
not use wmp

Overboard 2018

Quality MIRCrew on HD 720p da  2,1 gb








GENERE: Commedia, Sentimentale
ANNO: 2018
REGIA: Bob Fisher, Rob Greenberg
PAESE: USA
DURATA: 112 Min



Eugenio Derbez, Anna Faris, Swoosie Kurtz, Eva Longoria, John Hannah, Mel Rodriguez, Celeste Ziegler, Josh Segarra, Alyvia Alyn Lind



Vede protagonisti Leonardo (Eugenio Derbez), un playboy messicano egoista e viziato, nonché uno degli uomini più ricchi del suo paese e Kate (Anna Faris), una mamma single con tre figli che per sbarcare il lunario è costretta a fare le pulizie sul lussuoso yatch di Leonardo.



A spoiled, wealthy yacht owner is thrown overboard and becomes the target of revenge from his mistreated employee.









General
Unique ID                                : 295396681681202389271700471699397080598 (0xDE3B54DB5D74B8A65D2BE1B88FC2F616)
Complete name                            : Overboard 2018.720p.h264.ita.eng.sub.ita-MIRCrewOverboard 2018.720p.h264.ita.eng.sub.ita-MIRCrew.mkv
Format                                   : Matroska
Format version                           : Version 2
File size                                : 2.16 GiB
Duration                                 : 1h 52mn
Overall bit rate                         : 2 748 Kbps
Movie name                               : MIRCrew
Encoded date                             : UTC 2018-11-11 17:21:03
Writing application                      : Lavf54.63.100
Writing library                          : Lavf54.63.100

Video
ID                                       : 1
Format                                   : AVC
Format/Info                              : Advanced Video Codec
Format profile                           : [email protected]
Format settings, CABAC                   : Yes
Format settings, ReFrames                : 2 frames
Codec ID                                 : V_MPEG4/ISO/AVC
Duration                                 : 1h 52mn
Bit rate                                 : 1 798 Kbps
Nominal bit rate                         : 1 900 Kbps
Width                                    : 1 280 pixels
Height                                   : 528 pixels
Display aspect ratio                     : 2.40:1
Frame rate mode                          : Variable
Frame rate                               : 24.000 fps
Color space                              : YUV
Chroma subsampling                       : 4:2:0
Bit depth                                : 8 bits
Scan type                                : Progressive
Bits/(Pixel*Frame)                       : 0.111
Stream size                              : 1.41 GiB (65%)
Writing library                          : x264 core 130 r2273
Encoding settings                        : cabac=1 / ref=2 / deblock=1:0:0 / analyse=0x1:0x131 / me=hex / subme=7 / psy=1 / psy_rd=1.00:0.00 / mixed_ref=0 / me_range=16 / chroma_me=1 / trellis=1 / 8x8dct=0 / cqm=0 / deadzone=21,11 / fast_pskip=1 / chroma_qp_offset=-2 / threads=6 / lookahead_threads=1 / sliced_threads=0 / nr=0 / decimate=1 / interlaced=0 / bluray_compat=0 / constrained_intra=0 / bframes=3 / b_pyramid=0 / b_adapt=1 / b_bias=0 / direct=3 / weightb=1 / open_gop=0 / weightp=2 / keyint=240 / keyint_min=24 / scenecut=40 / intra_refresh=0 / rc_lookahead=40 / rc=abr / mbtree=1 / bitrate=1900 / ratetol=1.0 / qcomp=0.60 / qpmin=10 / qpmax=69 / qpstep=4 / vbv_maxrate=24000 / vbv_bufsize=24000 / nal_hrd=none / ip_ratio=1.40 / aq=1:1.00
Language                                 : Italian
Default                                  : Yes
Forced                                   : No
DURATION                                 : 01:52:38.875000000
NUMBER_OF_FRAMES                         : 162213
NUMBER_OF_BYTES                          : 6943705435
_STATISTICS_WRITING_APP                  : mkvmerge v9.7.1 ('Pandemonium&#39 64bit
_STATISTICS_WRITING_DATE_UTC             : 2018-11-05 11:45:26
_STATISTICS_TAGS                         : BPS DURATION NUMBER_OF_FRAMES NUMBER_OF_BYTES

Audio #1
ID                                       : 2
Format                                   : AC-3
Format/Info                              : Audio Coding 3
Mode extension                           : CM (complete main)
Codec ID                                 : A_AC3
Duration                                 : 1h 52mn
Bit rate mode                            : Constant
Bit rate                                 : 448 Kbps
Channel(s)                               : 6 channels
Channel positions                        : Front: L C R, Side: L R, LFE
Sampling rate                            : 48.0 KHz
Bit depth                                : 16 bits
Compression mode                         : Lossy
Delay relative to video                  : 1mn 5s
Stream size                              : 361 MiB (16%)
Language                                 : Italian
Default                                  : No
Forced                                   : No
DURATION                                 : 01:52:39.040000000
NUMBER_OF_FRAMES                         : 211220
NUMBER_OF_BYTES                          : 540723200
_STATISTICS_WRITING_APP                  : mkvmerge v9.7.1 ('Pandemonium&#39 64bit
_STATISTICS_WRITING_DATE_UTC             : 2018-11-05 11:45:26
_STATISTICS_TAGS                         : BPS DURATION NUMBER_OF_FRAMES NUMBER_OF_BYTES

Audio #2
ID                                       : 3
Format                                   : AC-3
Format/Info                              : Audio Coding 3
Mode extension                           : CM (complete main)
Codec ID                                 : A_AC3
Duration                                 : 1h 52mn
Bit rate mode                            : Constant
Bit rate                                 : 448 Kbps
Channel(s)                               : 6 channels
Channel positions                        : Front: L C R, Side: L R, LFE
Sampling rate                            : 48.0 KHz
Bit depth                                : 16 bits
Compression mode                         : Lossy
Delay relative to video                  : 1mn 5s
Stream size                              : 361 MiB (16%)
Language                                 : English
Default                                  : No
Forced                                   : No
DURATION                                 : 01:52:39.115000000
NUMBER_OF_FRAMES                         : 633667
NUMBER_OF_BYTES                          : 1274938164
_STATISTICS_WRITING_APP                  : mkvmerge v9.7.1 ('Pandemonium&#39 64bit
_STATISTICS_WRITING_DATE_UTC             : 2018-11-05 11:45:26
_STATISTICS_TAGS                         : BPS DURATION NUMBER_OF_FRAMES NUMBER_OF_BYTES

Menu
00:00:00.000                             : 01)00:00:00:000
00:10:21.416                             : 02)00:10:21:416
00:18:50.708                             : 03)00:18:50:708
00:26:42.958                             : 04)00:26:42:958
00:36:54.708                             : 05)00:36:54:708
00:46:21.583                             : 06)00:46:21:583
00:55:44.041                             : 07)00:55:44:041
01:05:11.708                             : 001:05:11:708
01:16:20.041                             : 09)01:16:20:041
01:24:28.833                             : 10)01:24:28:833
01:34:25.416                             : 11)01:34:25:416
01:43:56.541                             : 12)01:43:56:541
01:52:38.416                             : 13)01:52:38:416

Info: Per scaricare devi usare un client come uTorrent o Transmission
AnnounceURL
udp://tracker.coppersurfer.tk:6969/announce
Hash d4ce8fe64c00342320c513ba61147d8606ba3cb5
Peers seeds: 74 , leech: 8
Size 2.16 GB
Completato 2240x
Aggiunto 15.11.18 - 18:11:43
Uploader   robbyrs
Votazione (Voti: 0)


Condividi questo bittorrent:


html/blog:


bbcode/forum:




Aggiungi Commento